Search found 8 matches

by Leonoportman
Wed Sep 18, 2019 5:49 am
Forum: Blu-ray discs
Topic: John Wick: Chapter 3 - Parabellum
Replies: 118
Views: 129811

Re: John Wick: Chapter 3 - Parabellum

Can I get some assistance/advise on this issue, I use Handbrake .9.9.5530 an older version I know but this was b4 they implemented security check on Handbrake, and I use it to rip all stuff, but more and more I have been running into the situation where there are so many of these alternate versions ...
by Leonoportman
Thu Jul 14, 2016 4:25 am
Forum: MKV file processing and playback
Topic: Occasional Veiwing failure
Replies: 0
Views: 3945

Occasional Veiwing failure

Ok this problem has been plaguing me for quite some time and to be honest I can't get my head around it and it effects a very small % of my rips, but I am looking for some opinions as to what this issue is and if anyone else is experiencing it as well and how they have fixed it. To start I am not a ...
by Leonoportman
Mon Feb 09, 2015 2:04 am
Forum: Blu-ray discs
Topic: John Wick - US Version
Replies: 112
Views: 169627

Re: John Wick - US Version

The one i found to be the right one mpls 00772 00513.M2TS 0:00:00.000 0:03:36.007 0 0 00502.M2TS 0:03:36.007 0:00:26.609 0 0 00515.M2TS 0:04:02.617 0:00:31.948 0 0 00504.M2TS 0:04:34.565 0:01:06.816 0 0 00509.M2TS 0:05:41.382 0:00:35.201 0 0 00512.M2TS 0:06:16.584 0:00:29.988 0 0 00508.M2TS 0:06:46...
by Leonoportman
Sat Feb 07, 2015 4:21 am
Forum: Blu-ray discs
Topic: John Wick - US Version
Replies: 112
Views: 169627

Re: John Wick - US Version

MKV TITLE: JOHN_WICK_RENTAL Source: Red Box File Size:22.2 GB (23,891,001,200 bytes) Converter: Handbrake Movie Length: 01:41:12 Nearly All of my movie length are listed at this length FYI a couple a 1 min. longer 00404.mpls had an inaccurate switch the doctor scene from the Hotel was spliced in the...
by Leonoportman
Sun Aug 31, 2014 7:39 pm
Forum: Blu-ray discs
Topic: RED 2
Replies: 40
Views: 57168

Re: RED 2

I am confused here are we saying that this code change is required and I must upload Pearl to correctly RIP this File on Hand Brake or are we saying that this is answer to someone specific code Problem. I've incurred no uses making my MKV folders but when I load them into Hand Break I have like a 10...
by Leonoportman
Fri Jul 11, 2014 2:50 am
Forum: Blu-ray discs
Topic: Copy Protection Key Exchange Failure
Replies: 40
Views: 36473

Re: Copy Protection Key Exchange Failure

I would like to give an update on this and explain how I fixed this see maybe if this help u. I finally came to the realisation that MakeMKV is really not updateing when it says it is. After you run updates and reopen what does it say at the bottom when u open is it an older version. I assumed that ...
by Leonoportman
Sat Jul 05, 2014 8:09 pm
Forum: Blu-ray discs
Topic: Copy Protection Key Exchange Failure
Replies: 40
Views: 36473

Re: Copy Protection Key Exchange Failure

Im posting a copy of the fail log the current disk is V9 (Tropic Thunder)and at the bottom u can see V46 (Pompii) which is the disk I was attempting to convert when my problems started. I am using Windows and always have so. I have tried older versions like 1.8.7 and several others but i get the sam...
by Leonoportman
Sat Jul 05, 2014 3:59 am
Forum: Blu-ray discs
Topic: Copy Protection Key Exchange Failure
Replies: 40
Views: 36473

Re: Copy Protection Key Exchange Failure

I think the issue here isn't what the problem is. Its not working. New AACS versions are out MKV programming hasnt caught up. Ok np just wait for a newer version. In the mean time what is it I need to do to make AACS 46 and lower work because I have the most recent version 1.8.11. But all my Rays do...